<?xml version="1.0" encoding="UTF-8" standalone="no"?>
<!-- Creator: CorelDRAW 2020 (64-Bit) -->

<svg
   xml:space="preserve"
   width="175.40001"
   height="85.870003"
   version="1.1"
   style="clip-rule:evenodd;fill-rule:evenodd;image-rendering:optimizeQuality;shape-rendering:geometricPrecision;text-rendering:geometricPrecision"
   viewBox="0 0 175.40001 85.870003"
   id="svg23"
   xmlns="http://www.w3.org/2000/svg"
   xmlns:svg="http://www.w3.org/2000/svg">
 <defs
   id="defs21"><font
     id="FontID0"
     horiz-adv-x="644"
     font-variant="normal"
     style="fill-rule:nonzero"
     font-weight="400"
     horiz-origin-x="0"
     horiz-origin-y="0"
     vert-origin-x="512"
     vert-origin-y="768"
     vert-adv-y="1024">
	<font-face
   font-family="Segoe UI"
   id="font-face1">
		<font-face-src>
			<font-face-name
   name="Segoe UI" />
		</font-face-src>
	</font-face>
   <missing-glyph
   id="missing-glyph1"><path
     d="M0 0z"
     id="path1" /></missing-glyph>
   <glyph
   unicode="B"
   horiz-adv-x="573"
   d="M91.7827 0l0 700.066 199.195 0c60.4192,0 108.671,-14.7901 143.915,-44.3704 35.5592,-29.5802 53.3913,-68.2863 53.3913,-115.803 0,-39.6501 -10.8041,-74.1604 -32.3075,-103.426 -21.5034,-29.3704 -51.0836,-50.1396 -88.8456,-62.5171l0 -1.99299c47.0976,-5.55941 84.9645,-23.3915 113.286,-53.2864 28.3215,-30.2096 42.4823,-69.3352 42.4823,-117.482 0,-59.8947 -21.5034,-108.356 -64.5101,-145.489 -42.9018,-37.2375 -97.1323,-55.699 -162.586,-55.699l-204.02 0zm82.0275 625.905l0 -226.152 84.0205 0c44.7899,0 80.1394,10.8041 105.943,32.5173 25.6991,21.7132 38.4963,52.1325 38.4963,91.6778 0,67.9716 -44.685,101.957 -134.265,101.957l-94.1952 0zm0 -299.788l0 -251.957 111.293 0c48.1466,0 85.489,11.5384 112.027,34.1956 26.6432,22.7621 39.755,54.1255 39.755,93.7757 0,82.6568 -56.2234,123.985 -168.88,123.985l-94.1952 0z"
   id="glyph1" />
   <glyph
   unicode="C"
   horiz-adv-x="619"
   d="M568.213 29.3704c-51.6081,-27.3775 -116.118,-41.0137 -193.32,-41.0137 -99.6497,0 -179.265,31.9928 -239.054,96.0833 -59.9996,64.1954 -89.9994,148.321 -89.9994,252.481 0,111.817 33.776,202.341 101.118,271.362 67.3422,69.1255 152.831,103.636 256.362,103.636 66.2933,0 121.258,-9.65029 164.894,-28.846l0 -87.482c-50.1396,28.0068 -105.419,41.9578 -165.943,41.9578 -80.3492,0 -145.489,-26.853 -195.418,-80.4541 -50.0347,-53.706 -74.9995,-125.454 -74.9995,-215.348 0,-85.2792 23.2866,-153.251 69.9646,-203.81 46.7829,-50.664 107.936,-75.9436 183.985,-75.9436 70.1744,0 131.118,15.6293 182.411,46.7829l0 -79.4051z"
   id="glyph2" />
   <glyph
   unicode="I"
   horiz-adv-x="266"
   d="M173.81 0l-82.0275 0 0 700.066 82.0275 0 0 -700.066z"
   id="glyph3" />
   <glyph
   unicode="P"
   horiz-adv-x="559"
   d="M173.81 264.649l0 -264.649 -82.0275 0 0 700.066 192.376 0c74.7898,0 132.796,-18.1467 174.125,-54.65 41.1186,-36.5033 61.6779,-87.7967 61.6779,-154.3 0,-66.2933 -22.867,-120.629 -68.7059,-163.006 -45.6291,-42.2725 -107.517,-63.4612 -185.139,-63.4612l-92.3071 0zm0 361.257l0 -287.096 86.0135 0c56.4332,0 99.7546,13.0069 129.44,38.811 29.79,25.804 44.685,62.5171 44.685,109.615 0,92.5169 -54.65,138.67 -163.95,138.67l-96.1882 0z"
   id="glyph4" />
   <glyph
   unicode="S"
   horiz-adv-x="531"
   d="M58.9507 28.3215l0 96.6078c11.2237,-9.75519 24.5453,-18.4614 39.8599,-26.3285 15.5244,-7.76219 31.8879,-14.4754 48.8808,-19.8251 17.0978,-5.24472 34.3005,-9.4405 51.3983,-12.4824 17.4125,-2.83215 33.3564,-4.30067 47.8319,-4.30067 50.5591,0 88.2162,9.33561 113.181,28.1117 24.86,18.6712 37.3424,45.734 37.3424,80.6638 0,18.9859 -4.19578,35.3494 -12.4824,49.4053 -8.39156,13.951 -19.8251,26.7481 -34.3005,38.2865 -14.6852,11.6433 -31.9928,22.6572 -52.0277,33.3564 -20.1397,10.4894 -41.6431,21.6083 -64.8248,33.2515 -24.3355,12.3775 -47.2025,25.0698 -68.2863,37.762 -21.1887,12.5873 -39.5452,26.6432 -55.1745,41.9578 -15.7342,15.3146 -27.9019,32.6222 -36.818,52.0277 -9.02092,19.3006 -13.5314,41.9578 -13.5314,67.9716 0,31.9928 7.02793,59.5801 20.9789,83.2862 14.0559,23.7061 32.5173,43.0067 55.1745,58.3213 22.867,15.3146 48.7759,26.6432 77.9366,34.1956 29.0558,7.44751 58.8458,11.3286 89.0554,11.3286 68.9157,0 119.265,-8.39156 150.943,-25.0698l0 -92.3071c-41.3284,28.7411 -94.5099,43.0067 -159.125,43.0067 -18.0418,0 -35.8739,-1.78321 -53.8109,-5.45451 -17.8321,-3.8811 -33.8809,-10.0699 -47.8319,-18.3565 -14.0559,-8.49645 -25.3845,-19.5104 -34.1956,-32.832 -8.81113,-13.3216 -13.1118,-29.4753 -13.1118,-48.7759 0,-17.8321 3.25173,-33.3564 9.96497,-46.3634 6.71325,-13.0069 16.4684,-24.86 29.4753,-35.6641 13.0069,-10.6992 29.0558,-21.1887 47.727,-31.1537 18.5663,-10.1748 40.2795,-21.1887 64.615,-33.1467 25.1747,-12.4824 48.7759,-25.4894 71.3282,-39.2305 22.4474,-13.6363 42.1676,-28.7411 58.9507,-45.3144 16.9929,-16.6782 30.3145,-34.9299 40.3844,-55.1745 9.96497,-20.1397 14.7901,-43.3214 14.7901,-69.2303 0,-34.5103 -6.60835,-63.8807 -20.1397,-87.6918 -13.5314,-24.0208 -31.8879,-43.5312 -54.65,-58.3213 -22.9719,-14.9999 -49.5102,-25.804 -79.3002,-32.5173 -29.9998,-6.60835 -61.5731,-9.96497 -94.8246,-9.96497 -11.0139,0 -24.6502,0.839156 -41.0137,2.62236 -16.1537,1.8881 -32.832,4.40557 -49.8249,7.86708 -16.888,3.35662 -32.832,7.6573 -48.0417,12.6922 -15.1048,4.93004 -27.2726,10.5943 -36.5033,16.7831z"
   id="glyph5" />
   <glyph
   unicode="a"
   horiz-adv-x="508"
   d="M438.983 0l-80.2443 0 0 78.1464 -1.78321 0c-34.825,-59.9996 -86.1184,-89.7897 -153.775,-89.7897 -49.8249,0 -88.8456,13.1118 -117.062,39.4403 -28.1117,26.3285 -42.1676,61.3633 -42.1676,104.999 0,93.3561 55.0696,147.796 164.999,163.006l149.789 20.9789c0,84.9645 -34.3005,127.447 -102.901,127.447 -60.2094,0 -114.545,-20.4544 -163.006,-61.4682l0 82.0275c49.1955,31.2586 105.629,46.7829 169.824,46.7829 117.482,0 176.328,-62.0975 176.328,-186.502l0 -325.068zm-80.2443 253.005l-120.419 -16.6782c-37.1326,-5.24472 -65.1395,-14.3705 -84.0205,-27.6921 -18.7761,-13.1118 -28.3215,-36.5033 -28.3215,-69.9646 0,-24.3355 8.70624,-44.3704 26.1187,-59.8947 17.4125,-15.4195 40.4893,-23.0768 69.545,-23.0768 39.6501,0 72.4821,13.951 98.2861,41.6431 26.0138,27.797 38.811,63.1465 38.811,105.839l0 49.8249z"
   id="glyph6" />
   <glyph
   unicode="e"
   horiz-adv-x="522"
   d="M482.724 229.929l-352.865 0c1.25873,-55.5941 16.2586,-98.6008 44.9997,-128.915 28.6362,-30.2096 67.9716,-45.3144 118.111,-45.3144 56.3283,0 107.936,18.4614 155.349,55.5941l0 -75.1044c-44.0557,-31.9928 -102.167,-47.8319 -174.335,-47.8319 -70.6989,0 -126.188,22.6572 -166.468,67.9716 -40.4893,45.5242 -60.7339,109.3 -60.7339,191.642 0,77.8317 22.2376,141.188 66.1884,190.174 44.1606,48.9857 99.0204,73.4261 164.37,73.4261 65.4541,0 115.908,-21.1887 151.782,-63.4612 35.769,-42.1676 53.6011,-101.013 53.6011,-176.118l0 -42.0627zm-81.9226 67.8667c-0.314683,46.1536 -11.5384,82.1324 -33.3564,107.936 -22.0278,25.6991 -52.4472,38.4963 -91.6778,38.4963 -37.6571,0 -69.7548,-13.4265 -96.0833,-40.4893 -26.3285,-26.9579 -42.692,-62.3073 -48.8808,-105.943l269.998 0z"
   id="glyph7" />
   <glyph
   unicode="f"
   horiz-adv-x="313"
   d="M328.11 669.856c-15.6293,8.70624 -33.3564,13.2167 -53.2864,13.2167 -55.8039,0 -83.8107,-35.3494 -83.8107,-105.943l0 -77.2023 117.062 0 0 -68.2863 -117.062 0 0 -431.641 -79.7198 0 0 431.641 -85.489 0 0 68.2863 85.489 0 0 80.9785c0,52.5521 15.2097,93.8805 45.3144,124.3 30.3145,30.5243 68.1814,45.734 113.391,45.734 24.4404,0 43.741,-3.04194 58.1115,-8.91603l0 -72.1674z"
   id="glyph8" />
   <glyph
   unicode="h"
   horiz-adv-x="565"
   d="M496.046 0l-80.1394 0 0 288.145c0,104.16 -38.6012,156.083 -116.118,156.083 -39.0207,0 -71.9576,-14.9999 -98.6008,-45.1046 -26.7481,-30.2096 -40.0697,-68.8108 -40.0697,-116.013l0 -283.11 -80.1394 0 0 740.03 80.1394 0 0 -323.075 1.99299 0c38.3914,63.1465 93.0414,94.6148 164.055,94.6148 112.552,0 168.88,-67.7618 168.88,-203.495l0 -308.075z"
   id="glyph9" />
   <glyph
   unicode="i"
   horiz-adv-x="242"
   d="M121.992 626.954c-14.1608,0 -26.5383,4.82515 -36.5033,14.5803 -10.1748,9.75519 -15.2097,22.0278 -15.2097,37.0277 0,14.9999 5.03493,27.4823 15.2097,37.3424 9.96497,9.96497 22.3425,14.9999 36.5033,14.9999 14.6852,0 27.1677,-5.03493 37.4473,-14.9999 10.1748,-9.86008 15.4195,-22.3425 15.4195,-37.3424 0,-14.3705 -5.24472,-26.5383 -15.4195,-36.5033 -10.2797,-10.1748 -22.7621,-15.1048 -37.4473,-15.1048zm39.1256 -626.954l-80.1394 0 0 499.927 80.1394 0 0 -499.927z"
   id="glyph10" />
   <glyph
   unicode="l"
   horiz-adv-x="242"
   d="M161.118 0l-80.1394 0 0 740.03 80.1394 0 0 -740.03z"
   id="glyph11" />
   <glyph
   unicode="m"
   horiz-adv-x="861"
   d="M790.904 0l-80.0345 0 0 287.096c0,55.3843 -8.60135,95.3491 -25.5942,119.999 -17.2027,24.86 -45.8389,37.1326 -86.2232,37.1326 -34.0907,0 -63.2514,-15.6293 -87.1673,-46.7829 -23.9159,-31.3634 -35.9788,-68.7059 -35.9788,-112.342l0 -285.103 -79.9296 0 0 296.746c0,98.391 -38.0767,147.482 -113.81,147.482 -35.2445,0 -63.9856,-14.5803 -86.8526,-44.1606 -22.867,-29.4753 -34.1956,-67.7618 -34.1956,-114.964l0 -285.103 -80.1394 0 0 499.927 80.1394 0 0 -79.1953 1.99299 0c35.3494,60.7339 87.1673,90.8386 155.139,90.8386 34.1956,0 63.9856,-9.4405 89.3701,-28.4264 25.4894,-19.0908 42.7969,-44.0557 52.3423,-74.9995 36.9229,68.9157 92.3071,103.426 165.943,103.426 110.034,0 164.999,-67.7618 164.999,-203.495l0 -308.075z"
   id="glyph12" />
   <glyph
   unicode="n"
   horiz-adv-x="565"
   d="M496.046 0l-80.1394 0 0 285.103c0,106.153 -38.6012,159.125 -116.118,159.125 -39.9648,0 -73.1114,-14.9999 -99.3351,-45.1046 -26.3285,-30.2096 -39.3354,-68.1814 -39.3354,-114.02l0 -285.103 -80.1394 0 0 499.927 80.1394 0 0 -82.9715 1.99299 0c37.6571,63.1465 92.3071,94.6148 164.055,94.6148 54.65,0 96.398,-17.6223 125.454,-52.9717 28.9509,-35.1396 43.4263,-86.3281 43.4263,-152.936l0 -305.662z"
   id="glyph13" />
   <glyph
   unicode="o"
   horiz-adv-x="585"
   d="M289.928 -11.6433c-73.7408,0 -132.796,23.2866 -176.957,69.9646 -43.9508,46.678 -66.1884,108.671 -66.1884,185.768 0,84.0205 23.0768,149.475 68.9157,196.887 45.9438,47.0976 107.936,70.594 186.083,70.594 74.4751,0 132.691,-22.7621 174.439,-68.8108 41.8529,-45.8389 62.7269,-109.51 62.7269,-190.803 0,-79.8247 -22.5523,-143.601 -67.552,-191.642 -45.1046,-47.9368 -105.629,-71.9576 -181.467,-71.9576zm5.87409 455.871c-51.2934,0 -91.9924,-17.4125 -121.992,-52.4472 -29.9998,-35.0348 -44.9997,-83.1813 -44.9997,-144.859 0,-59.1605 15.2097,-105.734 45.5242,-139.929 30.3145,-34.1956 70.8038,-51.2934 121.468,-51.2934 51.8179,0 91.6778,16.7831 119.475,50.2444 27.797,33.5662 41.6431,81.1883 41.6431,142.971 0,62.5171 -13.8461,110.664 -41.6431,144.545 -27.797,33.9858 -67.6569,50.7689 -119.475,50.7689z"
   id="glyph14" />
   <glyph
   unicode="p"
   horiz-adv-x="587"
   d="M163.111 72.2723l-1.99299 0 0 -302.201 -80.1394 0 0 729.856 80.1394 0 0 -87.7967 1.99299 0c39.3354,66.2933 97.0274,99.44 172.866,99.44 64.3003,0 114.65,-22.3425 150.733,-67.1325 36.1886,-44.685 54.2304,-104.685 54.2304,-179.789 0,-83.7058 -20.3495,-150.628 -61.0486,-200.978 -40.5942,-50.1396 -96.2931,-75.3142 -166.887,-75.3142 -64.8248,0 -114.65,28.0068 -149.894,83.9156zm-1.99299 201.712l0 -69.8597c0,-41.3284 13.3216,-76.4681 40.3844,-105.314 26.7481,-28.846 60.8388,-43.1116 102.167,-43.1116 48.4612,0 86.433,18.4614 113.915,55.5941 27.4823,37.2375 41.3284,88.6358 41.3284,154.824 0,55.699 -12.7971,99.1253 -38.6012,130.803 -25.6991,31.4683 -60.5241,47.3074 -104.37,47.3074 -46.678,0 -84.0205,-16.1537 -112.342,-48.4612 -28.3215,-32.5173 -42.4823,-73.0065 -42.4823,-121.782z"
   id="glyph15" />
   <glyph
   unicode="r"
   horiz-adv-x="347"
   d="M341.746 418.948c-13.951,10.6992 -34.0907,15.944 -60.4192,15.944 -34.4054,0 -62.8318,-15.944 -85.8037,-48.2515 -22.867,-32.2026 -34.4054,-76.1534 -34.4054,-131.852l0 -254.789 -80.1394 0 0 499.927 80.1394 0 0 -103.006 1.99299 0c11.3286,35.1396 28.7411,62.5171 52.2374,82.3422 23.4964,19.6153 49.6151,29.4753 78.566,29.4753 20.874,0 36.7131,-2.30768 47.8319,-6.81814l0 -82.9715z"
   id="glyph16" />
   <glyph
   unicode="s"
   horiz-adv-x="424"
   d="M50.8738 18.0418l0 85.9086c43.4263,-32.0977 91.5729,-48.2515 143.915,-48.2515 70.3842,0 105.524,23.4964 105.524,70.2793 0,13.3216 -3.04194,24.6502 -9.02092,33.8809 -6.18877,9.23071 -14.1608,17.4125 -24.5453,24.6502 -10.0699,7.13282 -22.2376,13.6363 -36.0837,19.3006 -13.8461,5.6643 -28.7411,11.6433 -44.685,17.8321 -22.1327,8.81113 -41.5382,17.6223 -58.3213,26.6432 -16.6782,8.81113 -30.6292,18.9859 -41.9578,30.2096 -11.2237,11.3286 -19.7202,23.9159 -25.3845,38.2865 -5.6643,14.3705 -8.49645,31.1537 -8.49645,50.3493 0,23.4964 5.34962,44.1606 16.0489,62.3073 10.8041,18.0418 25.0698,33.1467 42.9018,45.3144 18.0418,12.1678 38.3914,21.5034 61.3633,27.6921 22.867,6.18877 46.678,9.12582 71.0136,9.12582 43.3214,0 81.9226,-7.44751 116.118,-22.3425l0 -81.0834c-36.6082,24.1257 -78.9855,36.0837 -126.817,36.0837 -14.9999,0 -28.4264,-1.67831 -40.5942,-5.13983 -12.0629,-3.35662 -22.3425,-8.18177 -31.0488,-14.2656 -8.49645,-6.18877 -15.2097,-13.7412 -20.0348,-22.2376 -4.61536,-8.60135 -6.92303,-18.1467 -6.92303,-28.6362 0,-13.0069 2.30768,-23.811 6.92303,-32.6222 4.82515,-8.91603 11.7482,-16.6782 20.874,-23.4964 9.02092,-6.92303 20.1397,-13.0069 33.1467,-18.5663 13.0069,-5.45451 27.797,-11.4335 44.4753,-17.937 22.0278,-8.49645 42.0627,-17.2027 59.4752,-26.2236 17.5174,-9.02092 32.5173,-18.9859 44.9997,-30.3145 12.3775,-11.1188 21.9229,-24.1257 28.5313,-38.811 6.71325,-14.6852 9.96497,-31.9928 9.96497,-52.1325 0,-24.86 -5.45451,-46.3634 -16.2586,-64.5101 -11.0139,-18.1467 -25.4894,-33.3564 -43.741,-45.3144 -18.2516,-12.1678 -39.2305,-20.9789 -62.9367,-27.0628 -23.811,-5.7692 -48.671,-8.60135 -74.7898,-8.60135 -51.3983,0 -95.9784,9.86008 -133.636,29.6851z"
   id="glyph17" />
   <glyph
   unicode="t"
   horiz-adv-x="338"
   d="M313.005 4.82515c-18.881,-10.2797 -43.8459,-15.5244 -74.6849,-15.5244 -87.6918,0 -131.328,48.8808 -131.328,146.538l0 295.802 -86.0135 0 0 68.2863 86.0135 0 0 121.992 79.9296 26.0138 0 -148.006 126.083 0 0 -68.2863 -126.083 0 0 -281.851c0,-33.4613 5.6643,-57.2724 17.2027,-71.6429 11.3286,-14.3705 30.2096,-21.5034 56.643,-21.5034 20.1397,0 37.5522,5.55941 52.2374,16.6782l0 -68.4961z"
   id="glyph18" />
   <glyph
   unicode="u"
   horiz-adv-x="565"
   d="M485.242 0l-79.9296 0 0 79.1953 -1.99299 0c-33.2515,-60.7339 -84.6498,-90.8386 -154.405,-90.8386 -119.055,0 -178.635,70.8038 -178.635,212.831l0 298.739 79.51 0 0 -286.152c0,-105.419 40.4893,-158.076 121.153,-158.076 39.0207,0 71.2233,14.2656 96.5029,43.1116 25.1747,28.846 37.8669,66.5031 37.8669,113.181l0 287.935 79.9296 0 0 -499.927z"
   id="glyph19" />
   <glyph
   unicode="v"
   horiz-adv-x="478"
   d="M474.123 499.927l-199.299 -499.927 -78.566 0 -189.439 499.927 87.7967 0 127.027 -363.25c9.4405,-26.6432 15.3146,-49.8249 17.6223,-69.8597l1.8881 0c3.35662,25.1747 8.49645,47.8319 15.6293,67.9716l132.796 365.138 84.5449 0z"
   id="glyph20" />
   <glyph
   unicode="y"
   horiz-adv-x="483"
   d="M478.948 499.927l-230.034 -579.961c-40.9088,-103.636 -98.6008,-155.244 -172.761,-155.244 -20.874,0 -38.1816,2.09789 -52.1325,6.29367l0 71.8527c17.0978,-5.87409 32.9369,-8.81113 47.3074,-8.81113 40.2795,0 70.6989,23.9159 90.8386,72.1674l39.9648 94.8246 -195.313 498.878 88.8456 0 135.314 -384.753c1.67831,-4.82515 5.03493,-17.5174 10.1748,-37.9718l2.93704 0c1.67831,7.76219 4.82515,20.1397 9.75519,37.1326l142.132 385.592 82.9715 0z"
   id="glyph21" />
  </font>
</defs>
</svg>
